動漫電驢下載基地

cartoon.shenqing.tv

 動漫電驢下載基地 >> 電視動畫 >> 《好想告訴你》(Kimi ni Todoke)[H&C字幕組][更新25話RMVB/mp4][HDTV]

《好想告訴你》(Kimi ni Todoke)[H&C字幕組][更新25話RMVB/mp4][HDTV]

動漫類型:電視動畫

文件大小:8.7GB

語言類型:繁體中文

更新時間:2017/7/26

資源發布:動漫電驢下載基地

《好想告訴你》(Kimi ni Todoke)[H&C字幕組][更新25話RMVB/mp4][HDTV] 簡介: 中文名 : 好想告訴你 英文名 : Kimi ni Todoke 別名 : 君に屆け 資源格式 : HDTV 版本 : [H&C字幕組][更新25話RMVB/mp4] 發行時間 : 2009年10月06日

  全選
"《好想告訴你》(Kimi ni Todoke)[H&C字幕組][更新25話RMVB/mp4][HDTV]"Anime介紹:
中文名: 好想告訴你 英文名: Kimi ni Todoke 別名: 君に屆け 資源格式: HDTV 版本: [H&C字幕組][更新25話RMVB/mp4] 發行時間: 2009年10月06日 地區:  日本 語言:  日語 簡介

IPB Image

【原名】君に屆け
【中文名】好想告訴你
【英文名】Kimi ni Todoke
【字幕】簡體內嵌
【格式】RMVB+MP4+MKV

此劇最大特點為 每話都換作畫監督 (-_-)y--~~

【在線預覽】



【STORY】

因為外表陰暗被人以為有靈力的黑沼爽子被大家所害怕著,同時還有個貞子的綽號。
習慣了周圍人躲避的爽子憧憬著深受大家喜歡的風早翔太。想要改變自己的爽子在風早、矢野绫音、吉田千鶴、真田龍這幾個同班同學的交往中一點點地打破自己的外殼。
純潔的爽子在友情、戀愛之情、對手、朋友和失戀等等初體驗的過程中,認真地描繪著校園青春故事。

【STAFF】

原作:椎名輕穗
導演:镝木宏
系列構成:金春智子
人物設計:柴田由香
道具設定:佐籐仁實
美術監督:竹田悠介
美術設定:成田偉飽,加籐朋則
3DCGI:佐籐敦
特殊攝影:村上正博
攝影監督:田中宏侍
編輯:今井大介
音響監督:山田知明
助導演:長沼范裕
音樂:S.E.N.S.Project
動畫制作:Production I.G

【CAST】

黒沼爽子:能登麻美子
風早翔太:浪川大輔
胡桃沢梅:平野绫
真田龍:中村悠一
矢野绫音:沢城美雪
吉田千鶴:三瓶由布子

【人物介紹】

黑沼爽子 通稱:貞子
外表陰暗,被人恐懼而被叫做“貞子”,但實際性格非常開朗,而且容易被細小的事情感動。
座右銘是“日行一善”。

風早翔太 通稱:風早
擁有直率的性格和爽朗的笑容,讓所有人都很喜歡的班級人氣王。
對入學典禮上邂逅的爽子非常在意。
座右銘是“真誠到底”。

吉田千鶴 通稱:千子
有情有義又熱血的大姐大。
深愛著拉面。和龍是青梅竹馬。
座右銘是“想吃就吃”。

矢野绫音 通稱:矢野親
冷靜沉著的逗哏角色。戀愛方面好像很有經驗。
興趣是探尋美麗。
座右銘是“眉目清秀”。

真田龍 通稱:龍
家裡是拉面店。和風早初中時就在一起。
棒球部人員。總之很有主見。



【14話QQ下載 需登陸可見】

http://hcplanet.uueasy.com/read.php?tid=85...ply=1&#a

【視頻截圖】

http://i49.tinypic.com/2z550zk.jpg
http://i49.tinypic.com/eh1150.jpg

代碼
      General
      Complete name : [好想告訴你][HC][Kimi ni Todoke][01][864×480][GB].rmvb
      Format : RealMedia
      File size : 99.7 MiB
      Duration : 22mn 44s
      Overall bit rate : 606 Kbps
      Performer : H&C字幕組
      Copyright : H&C字幕組
   Video #1
      ID : 1
      Format : RealVideo 4
      Codec ID : RV40
      Codec ID/Info : Based on AVC (H.264), Real Player 9
      Duration : 22mn 44s
      Bit rate : 510 Kbps
      Width : 864 pixels
      Height : 480 pixels
      Display aspect ratio : 16/9
      Frame rate : 23.000 fps
      Resolution : 12 bits
      Bits/(Pixel*Frame) : 0.053
      Stream size : 83.0 MiB (83%)
   Audio #0
      ID : 0
      Format : AAC
      Format/Info : Advanced Audio Codec
      Codec ID : racp
      Codec ID/Info : Real Player 10
      Duration : 22mn 44s
      Bit rate : 96.0 Kbps
      Channel(s) : 2 channels
      Sampling rate : 44.1 KHz
      Resolution : 16 bits
      Stream size : 15.6 MiB (16%)

  1. 上一頁:
  2. 下一頁:
最熱分享
熱門下載