動漫電驢下載基地

cartoon.shenqing.tv

 動漫電驢下載基地 >> 動畫綜合 >> The.Jetsons.And.WWE.Robo.WrestleMania.2017.720p.WEB

The.Jetsons.And.WWE.Robo.WrestleMania.2017.720p.WEB

動漫類型:動畫綜合

文件大小:不详

語言類型:繁體中文

更新時間:2017/7/13

資源發布:動漫電驢下載基地

The.Jetsons.And.WWE.Robo.WrestleMania.2017.720p.WEB 簡介: The.Jetsons.And.WWE.Robo.WrestleMania.2017.720p.WEB-DL.DD5.1.H264-FGT 2.5G_BT種子_動畫_電影下載 簡介 [網盤分流] 如電驢無法下載,請大家從

"The.Jetsons.And.WWE.Robo.WrestleMania.2017.720p.WEB"Anime介紹:
  • The.Jetsons.And.WWE.Robo.WrestleMania.2017.720p.WEB-DL.DD5.1.H264-FGT 2.5G_BT種子_動畫_電影下載

簡介


[網盤分流]
如電驢無法下載,請大家從網盤下載後將文件移至電驢文件夾用eMule做種,讓更多人下載
網盤下載 | http://66yp.cc/file-1224589.html|https://www.feemoo.com/file-959217.html

◎譯  名

◎片  名 The Jetsons & WWE: Robo-WrestleMania!

◎年  代 2017

◎國  家 美國

◎類  別 喜劇/動畫/家庭

◎語  言 英語

◎上映日期 2017-02-28

◎IMDb評分 6.8/10 from 15 users

◎IMDb鏈接 http://www.imdb.com/title/tt6415248/

◎BT之家整理 http://www.btbtt.co

◎片  長 72分鐘

◎導  演 Anthony Bell

◎主  演 格蕾·德麗斯勒 Grey DeLisle

      特雷弗·德瓦 Trevor Devall

      塔妮亞·古納迪 Tania Gunadi

      崔絲·麥妮利 Tress MacNeille

      弗蘭克·維爾克 Frank Welker

◎簡  介

  Blast o to adventure in this animated feature where our favorite space-age family, The Jetsons, meet the superstars of WWE! When George unearths WWE's Big Show, who has been frozen for 100 years, the futuristic face-o begins! Once thawed, Big Show wastes no time in taking the WWE belt from the current robot champ as well as taking total control of Orbit City. It's up to The Jetsons to travel back in time and enlist help from WWE's brightest stars: Sheamus, Alicia Fox, Roman Reigns, Seth Rollins and the Uso brothers. Can this cosmic tag-team prevail and set this twisted time-warp straight? Tune in and see with The Jetsons and WWE!

Video
ID : 1
Format : AVC
Format/Info : Advanced Video Codec
Format profile : High@L3.1
Format settings, CABAC : No
Format settings, ReFrames : 2 frames
Codec ID : V_MPEG4/ISO/AVC
Duration : 1h 21mn
Bit rate : 3 909 Kbps
Width : 1 280 pixels
Height : 718 pixels
Display aspect ratio : 16:9
Frame rate mode : Constant
Frame rate : 23.976 fps
Color space : YUV
Chroma subsampling : 4:2:0
Bit depth : 8 bits
Scan type : Progressive
Bits/(Pixel*Frame) : 0.177
Stream size : 2.23 GiB (89%)
Title : The.Jetsons.And.WWE.Robo.WrestleMania.2017.720p.WEB-DL.DD5.1.H264-FGT
Language : English
Default : Yes
Forced : No
Color range : Limited
Color primaries : BT.709
Transfer characteristics : BT.709
Matrix coefficients : BT.709

Audio
ID : 2
Format : AC-3
Format/Info : Audio Coding 3
Mode extension : CM (complete main)
Format settings, Endianness : Big
Codec ID : A_AC3
Duration : 1h 21mn
Bit rate mode : Constant
Bit rate : 384 Kbps
Channel(s) : 6 channels
Channel positions : Front: L C R, Side: L R, LFE
Sampling rate : 48.0 KHz
Frame rate : 31.250 fps (1536 spf)
Compression mode : Lossy
Stream size : 224 MiB (9%)
Title : The.Jetsons.And.WWE.Robo.WrestleMania.2017.720p.WEB-DL.DD5.1.H264-FGT
Language : English
Default : Yes
Forced : No

Menu
00:00:00.000 : en:1
00:10:11.000 : en:2
00:22:27.000 : en:3
00:35:55.000 : en:4
00:48:14.000 : en:5
01:02:50.000 : en:6
01:14:53.000 : en:7



CC下載站 精品源碼 | 68資源網

下載資源

如果您想下載The.Jetsons.And.WWE.Robo.WrestleMania.2017.720p.WEB-DL.DD5.1.H264-FGT 2.5G_BT種子_動畫_電影下載的BT種子文件或數據,請使用迅雷、QQ旋風、uTorrent等BT工具下載。
  1. 上一頁:
  2. 下一頁:
最熱分享
熱門下載